<?xml version="1.0" standalone="no"?>
<!DOCTYPE svg PUBLIC "-//W3C//DTD SVG 1.1//EN" "http://www.w3.org/Graphics/SVG/1.1/DTD/svg11.dtd" >
<svg xmlns="http://www.w3.org/2000/svg">
<metadata>Generated by IcoMoon</metadata>
<defs>
<font id="icomoon" horiz-adv-x="1024">
<font-face units-per-em="1024" ascent="960" descent="-64" />
<missing-glyph horiz-adv-x="1024" />
<glyph unicode="&#x20;" horiz-adv-x="512" d="" />
<glyph unicode="&#xe900;" glyph-name="cameraArc" d="M671.104 800.69c-8.237-6.526-14.838-15.349-18.756-25.992l-109.931-298.64c-11.397-30.961 4.368-65.244 35.348-76.868l103.104-38.687c30.98-11.624 65.096 3.944 76.493 34.904l109.931 298.64c11.397 30.961-4.368 65.244-35.348 76.868l-103.105 38.686c-20.331 7.629-42.011 3.546-57.736-8.911zM688.017 768.654c0.029 0.023 0.064 0.049 0.099 0.076 5.718 4.344 13.899 3.199 18.274-2.559 2.84-3.738 3.377-8.501 1.84-12.571l-0.024-0.059-111.861-303.881c-0.789-2.271-2.265-4.388-4.367-5.985-5.718-4.344-13.899-3.199-18.274 2.559-2.835 3.731-3.375 8.483-1.849 12.548l0.024 0.059 111.861 303.881c0.774 2.242 2.218 4.335 4.272 5.928l0.005 0.004zM794.82 713.29l41.94-15.737-15.429-41.915-41.94 15.737zM770.391 646.925l41.94-15.737-15.429-41.915-41.94 15.737zM747.89 585.8l41.94-15.737-15.427-41.914-41.94 15.737zM691.304 425.502c6.756 5.133 16.394 3.818 21.528-2.939 0 0 0.001-0.001 0.001-0.001v0c5.133-6.756 3.818-16.394-2.938-21.528v0c-6.756-5.133-16.394-3.818-21.528 2.938v0c0 0-0.001 0.001-0.001 0.001-5.133 6.756-3.818 16.394 2.938 21.528v0zM652.497 334.349l6.902 18.75-82.521 30.964-6.902-18.75-45.802-15.405-9.503-25.816 153.041-57.425 9.503 25.816zM512.265 546.472c-80.145 0-160.287-20.721-232.073-62.167-127.665-73.708-211.784-203.084-228.857-347.407h-37.092l60.074-104.052 60.077 104.052h-29.271c16.753 125.235 90.558 236.979 201.757 301.18 65.924 38.061 139.748 56.378 213.279 54.966l19.479 52.607c-9.116 0.538-18.245 0.821-27.373 0.821zM803.239 443.953l-19.682-53.152c74.203-65.241 122.67-155.4 135.848-253.903h-29.797l60.074-104.052 60.077 104.052h-36.566c-14.289 120.775-75.529 231.079-169.953 307.055z" />
<glyph unicode="&#xe901;" glyph-name="cameraTop" d="M375.614 901.992c-6.988-11.496-10.991-25.025-10.964-39.545l0.776-407.429c0.080-42.239 34.249-76.392 76.612-76.576l140.989-0.614c42.363-0.184 76.403 33.674 76.323 75.913l-0.776 407.429c-0.080 42.239-34.249 76.392-76.612 76.576l-140.99 0.612c-27.801 0.121-52.017-14.419-65.358-36.366zM410.161 871.048c0.025 0.040 0.055 0.088 0.085 0.135 4.934 7.758 15.266 10.020 23.078 5.052 5.072-3.225 7.834-8.705 7.798-14.275l-0.003-0.082 0.789-414.579c0.062-3.077-0.769-6.275-2.583-9.127-4.934-7.758-15.266-10.020-23.078-5.052-5.062 3.219-7.824 8.684-7.798 14.244l0.003 0.081-0.789 414.579c-0.067 3.036 0.736 6.191 2.494 9.017l0.004 0.007zM563.006 852.055l57.351-0.249 0.109-57.184-57.351 0.249zM563.18 761.516l57.351-0.249 0.109-57.184-57.351 0.249zM563.337 678.123l57.351-0.249 0.111-57.182-57.351 0.249zM566.661 460.508c5.83 9.167 17.987 11.872 27.153 6.042 0.001 0 0.001-0.001 0.002-0.001v0c9.167-5.83 11.872-17.986 6.042-27.153v0c-5.83-9.167-17.986-11.872-27.153-6.042v0c0 0-0.001 0.001-0.002 0.001-9.167 5.83-11.872 17.986-6.043 27.153v0zM560.59 333.815l-0.049 25.58-112.843 0.491 0.049-25.58-48.142-38.858 0.067-35.22 209.275-0.91-0.067 35.22zM42.97 12.839h938.060v-44.99h-938.060v44.99z" />
<glyph unicode="&#xe902;" glyph-name="cameraFollow" d="M820.172 924.296c-12.276-2.059-24.17-7.437-34.32-16.237l-284.816-246.928c-29.528-25.6-32.779-70.178-7.289-99.953l84.831-99.093c25.49-29.775 69.782-33.135 99.31-7.535l284.816 246.928c29.528 25.6 32.779 70.178 7.289 99.953l-84.833 99.092c-16.728 19.54-41.552 27.703-64.988 23.772zM819.396 881.392c0.043 0.007 0.095 0.015 0.146 0.022 8.416 1.237 16.248-4.63 17.493-13.104 0.809-5.502-1.358-10.75-5.28-14.093l-0.059-0.047-289.814-251.261c-2.117-1.904-4.859-3.256-7.953-3.711-8.416-1.237-16.248 4.63-17.493 13.104-0.807 5.491 1.35 10.73 5.258 14.074l0.059 0.047 289.814 251.261c2.085 1.883 4.78 3.229 7.822 3.706l0.008 0.001zM898.527 762.884l34.507-40.309-39.974-34.657-34.507 40.309zM835.236 708.011l34.507-40.309-39.974-34.657-34.507 40.309zM776.938 657.47l34.507-40.309-39.972-34.657-34.507 40.309zM626.573 523.544c9.944 1.461 19.19-5.415 20.651-15.359 0-0.001 0-0.001 0-0.002v0c1.461-9.944-5.415-19.19-15.359-20.651v0c-9.944-1.461-19.19 5.415-20.651 15.359v0c0 0.001 0 0.001 0 0.002-1.461 9.944 5.415 19.19 15.359 20.652v0zM534.19 451.179l17.882 15.503-67.896 79.31-17.882-15.503-56.322 10.211-24.62-21.345 125.918-147.087 24.62 21.345zM77.978 278.001v-79.379h16.684v-17.733h-55.553v-136.122h20.932c-3.085 10.21-4.861 21.943-4.863 34.091v0.001c0.001 67.401 54.64 122.039 122.041 122.039 0.001 0 0.002 0 0.002 0v0c67.4-0.001 122.038-54.639 122.039-122.039v0c0-0.002 0-0.005 0-0.008 0-8.703-0.911-17.193-2.643-25.381l0.141 0.797h278.862c16.956-46.76 60.991-79.565 112.687-79.565 0 0 0.001 0 0.001 0v0c0 0 0.001 0 0.001 0 51.697 0 95.731 32.805 112.423 78.733l0.264 0.832h19.195v162.943h-430.292v30.993h-79.379v-30.993h-19.267v30.993h-79.384v-30.993h-54.512v60.791zM177.222 183.015c0 0 0 0 0 0-57.524 0-104.156-46.632-104.156-104.156 0 0 0 0 0 0v0c0 0 0 0 0 0 0-57.524 46.632-104.156 104.156-104.156 0 0 0 0 0 0v0c0 0 0 0 0 0 57.524 0 104.156 46.632 104.156 104.156 0 0 0 0 0 0v0c0 0 0 0 0 0 0 57.524-46.632 104.156-104.156 104.156 0 0 0 0 0 0v0zM163.415 134.085h27.613v-41.42h41.42v-27.613h-41.42v-41.42h-27.613v41.42h-41.425v27.613h41.425zM50.426 268.304h21.393v-57.933h-21.393v57.933z" />
<glyph unicode="&#xe903;" glyph-name="ruler" d="M236.116 901.32l-191.53-191.53 773.789-773.789 191.53 191.53zM236.117 828.693l698.114-698.114-110.792-110.792-698.114 698.114zM222.601 754.843c-6.823 6.712-15.148 9.278-18.693 5.733-0.032-0.032-0.064-0.065-0.095-0.097l-46.283-46.283c-0.028-0.026-0.061-0.058-0.093-0.090-3.579-3.579-0.929-12.033 5.919-18.881s15.302-9.499 18.881-5.919c0.032 0.032 0.064 0.065 0.095 0.098l46.283 46.283c0.028 0.026 0.060 0.058 0.092 0.090 3.579 3.579 0.929 12.033-5.919 18.881-0.066 0.066-0.132 0.131-0.198 0.196l0.010-0.010zM261.17 665.668c-6.823 6.712-15.148 9.278-18.693 5.733-0.033-0.033-0.065-0.066-0.096-0.099l-20.978-20.978c-0.028-0.026-0.060-0.058-0.093-0.090-3.579-3.579-0.929-12.033 5.919-18.881s15.302-9.499 18.881-5.919c0.032 0.032 0.064 0.065 0.095 0.098l20.978 20.978c0.028 0.027 0.062 0.059 0.094 0.092 3.579 3.579 0.929 12.033-5.919 18.881-0.066 0.066-0.132 0.131-0.198 0.196l0.010-0.010zM350.344 627.1c-6.823 6.715-15.151 9.282-18.696 5.736-0.032-0.032-0.064-0.065-0.095-0.097l-46.283-46.283c-0.028-0.026-0.061-0.058-0.093-0.090-3.579-3.579-0.929-12.033 5.919-18.881s15.302-9.499 18.881-5.919c0.032 0.032 0.064 0.065 0.095 0.098l46.283 46.283c0.028 0.026 0.060 0.058 0.092 0.090 3.579 3.579 0.929 12.033-5.919 18.881-0.065 0.065-0.13 0.129-0.195 0.193l0.010-0.010zM388.909 537.929c-6.823 6.712-15.148 9.278-18.693 5.733-0.033-0.033-0.065-0.066-0.096-0.099l-20.978-20.978c-0.028-0.026-0.060-0.058-0.093-0.090-3.579-3.579-0.929-12.033 5.919-18.881s15.302-9.499 18.881-5.919c0.032 0.032 0.064 0.065 0.095 0.098l20.978 20.978c0.028 0.027 0.062 0.059 0.094 0.092 3.579 3.579 0.929 12.033-5.919 18.881-0.066 0.066-0.132 0.131-0.198 0.196l0.010-0.010zM478.083 499.361c-6.823 6.712-15.148 9.278-18.693 5.733-0.032-0.032-0.064-0.065-0.095-0.097l-46.283-46.283c-0.028-0.027-0.061-0.058-0.093-0.091-3.579-3.579-0.929-12.033 5.919-18.881s15.302-9.499 18.881-5.919c0.032 0.032 0.064 0.065 0.095 0.098l46.283 46.283c0.028 0.026 0.060 0.058 0.092 0.090 3.579 3.579 0.929 12.033-5.919 18.881-0.066 0.066-0.132 0.131-0.198 0.196l0.010-0.010zM516.652 410.186c-6.823 6.712-15.148 9.278-18.693 5.733-0.033-0.033-0.065-0.066-0.096-0.099l-20.978-20.978c-0.028-0.027-0.061-0.058-0.093-0.091-3.579-3.579-0.929-12.033 5.919-18.881s15.302-9.499 18.881-5.919c0.032 0.032 0.064 0.065 0.095 0.098l20.978 20.978c0.028 0.027 0.062 0.059 0.094 0.092 3.579 3.579 0.929 12.033-5.919 18.881-0.066 0.066-0.132 0.131-0.198 0.196l0.010-0.010zM605.826 371.618c-6.823 6.715-15.151 9.282-18.696 5.736-0.032-0.032-0.064-0.065-0.095-0.097l-46.283-46.283c-0.028-0.027-0.061-0.058-0.093-0.091-3.579-3.579-0.929-12.033 5.919-18.881s15.302-9.499 18.881-5.919c0.032 0.032 0.064 0.065 0.096 0.098l46.283 46.283c0.028 0.026 0.060 0.058 0.092 0.090 3.579 3.579 0.929 12.033-5.919 18.881-0.065 0.065-0.13 0.129-0.195 0.193l0.010-0.010zM644.391 282.447c-6.823 6.712-15.148 9.278-18.693 5.733-0.033-0.033-0.065-0.066-0.096-0.099l-20.978-20.978c-0.028-0.026-0.061-0.058-0.093-0.090-3.579-3.579-0.929-12.033 5.919-18.881s15.302-9.499 18.881-5.919c0.032 0.032 0.064 0.065 0.095 0.098l20.978 20.978c0.028 0.027 0.062 0.059 0.094 0.092 3.579 3.579 0.929 12.033-5.919 18.881-0.066 0.066-0.132 0.131-0.198 0.196l0.010-0.010zM733.565 243.879c-6.823 6.712-15.148 9.278-18.693 5.733-0.032-0.032-0.064-0.065-0.095-0.097l-46.283-46.283c-0.028-0.027-0.061-0.058-0.093-0.091-3.579-3.579-0.929-12.033 5.919-18.881s15.302-9.499 18.881-5.919c0.032 0.032 0.064 0.065 0.095 0.098l46.283 46.283c0.028 0.026 0.060 0.058 0.092 0.090 3.579 3.579 0.929 12.033-5.919 18.881-0.066 0.066-0.132 0.131-0.198 0.196l0.010-0.010zM772.134 154.704c-6.823 6.712-15.148 9.278-18.693 5.733-0.033-0.033-0.065-0.066-0.096-0.099l-20.978-20.978c-0.028-0.026-0.061-0.058-0.093-0.090-3.579-3.579-0.929-12.033 5.919-18.881s15.302-9.499 18.881-5.919c0.032 0.032 0.064 0.065 0.095 0.098l20.978 20.978c0.028 0.027 0.062 0.059 0.094 0.092 3.579 3.579 0.929 12.033-5.919 18.881-0.066 0.066-0.132 0.131-0.198 0.196l0.010-0.010zM861.305 116.139c-6.823 6.712-15.148 9.278-18.693 5.733-0.032-0.032-0.064-0.065-0.095-0.097l-46.283-46.283c-0.028-0.026-0.061-0.058-0.093-0.090-3.579-3.579-0.929-12.033 5.919-18.881s15.302-9.499 18.881-5.919c0.032 0.032 0.064 0.065 0.095 0.098l46.283 46.283c0.028 0.026 0.060 0.058 0.092 0.090 3.579 3.579 0.929 12.033-5.919 18.881-0.066 0.066-0.132 0.131-0.198 0.196l0.010-0.010z" />
<glyph unicode="&#xe904;" glyph-name="camera" d="M702.31 891.502c-16.939-0.343-34.021-5.232-49.431-15.073l-432.427-276.16c-44.831-28.63-58.032-88.019-29.599-133.161l94.626-150.235c28.433-45.142 87.416-58.433 132.247-29.803l432.427 276.16c44.831 28.63 58.032 88.019 29.599 133.161l-94.629 150.235c-18.659 29.624-50.474 45.532-82.812 44.876zM692.774 833.878c0.060 0.001 0.13 0.001 0.201 0.001 11.578 0 20.964-9.451 20.964-21.109 0-7.569-3.956-14.207-9.9-17.933l-0.089-0.052-440.015-281.006c-3.228-2.146-7.188-3.423-11.444-3.423-11.578 0-20.964 9.451-20.964 21.109 0 7.555 3.941 14.183 9.867 17.912l0.088 0.052 440.015 281.006c3.181 2.123 7.077 3.402 11.267 3.443h0.011zM775.883 658.623l38.492-61.112-60.692-38.76-38.492 61.112 60.692 38.76zM679.789 597.254l38.492-61.112-60.692-38.76-38.492 61.112 60.692 38.76zM591.278 540.731l38.492-61.112-60.689-38.76-38.492 61.112 60.689 38.76zM362.277 390.137c13.68 0 24.771-11.091 24.771-24.771 0-0.001 0-0.002 0-0.003v0c0-13.68-11.090-24.77-24.771-24.771v0c-13.68 0-24.77 11.090-24.771 24.771v0c0 0.001 0 0.002 0 0.002 0 13.681 11.090 24.771 24.771 24.771v0zM223.545 310.97l27.15 17.338-75.736 120.243-27.15-17.338-73.826 24.899-37.38-23.872 140.459-223 37.38 23.872zM653.692 452.081l-52.962-34.31 129.436-199.799h251.299v63.102h-216.992l-110.781 171.007zM970.184 483.47c-26.394 0-47.643-21.396-47.643-47.973v-392.316c0-26.577 21.249-47.973 47.643-47.973h17.998v488.263h-17.998z" />
<glyph unicode="&#xe905;" glyph-name="virtualJoystickIndicator" d="M642.048 448c0-71.789-58.169-129.992-129.945-130.048h-0.005c-0.029 0-0.064 0-0.098 0-71.754 0-129.936 58.113-130.048 129.841v0.011c0 0.058 0 0.127 0 0.196 0 71.72 58.057 129.88 129.738 130.048h0.016c0.088 0 0.191 0 0.295 0 71.686 0 129.824-58.001 130.047-129.634v-0.021z" />
<glyph unicode="&#xe906;" glyph-name="stop" d="M145.595 756.606h732.81v-732.81h-732.81v732.81z" />
<glyph unicode="&#xe907;" glyph-name="play" d="M881.925 405.088l-729.179-420.992v841.983z" />
<glyph unicode="&#xe908;" glyph-name="globe" d="M512 954.645c-279.391 0-506.645-227.254-506.645-506.645s227.254-506.645 506.645-506.645c279.391 0 506.645 227.254 506.645 506.645s-227.254 506.645-506.645 506.645zM476.446 882.093v-146.577c-47.737 1.164-94.952 4.552-137.676 8.737 8.525 15.839 17.336 30.175 26.113 43.103 36.665 54.005 71.133 82.008 84.478 91.7 8.943 1.282 17.973 2.304 27.085 3.037zM547.554 882.093c7.711-0.62 15.364-1.445 22.956-2.46 12.746-9.145 47.879-37.205 85.268-92.277 8.59-12.652 17.209-26.668 25.564-42.106-41.399-4.575-87.196-8.281-133.788-9.623v146.466zM707.532 837.422c38.457-19.303 73.647-44.115 104.52-73.435-15.257-2.695-34.225-5.821-55.979-9.040-13.126 27.329-27.256 51.42-41.464 72.349-2.354 3.467-4.715 6.822-7.077 10.126zM311.2 834.737c-1.719-2.438-3.434-4.917-5.148-7.441-14.569-21.459-29.056-46.24-42.461-74.432-21.135 2.753-39.862 5.452-55.081 7.796 30.293 29.407 64.855 54.435 102.69 74.077zM866.164 701.869c44.759-62.405 73.406-137.181 79.929-218.315h-125.306c-3.497 78.886-17.558 146.488-37.029 203.566 47.802 7.482 78.026 13.816 82.407 14.749zM154.731 697.468c7.561-1.389 36.514-6.565 81.339-12.753-19.045-56.564-32.748-123.39-36.196-201.161h-121.967c6.37 79.238 33.849 152.406 76.824 213.914zM712.044 677.151c19.391-52.508 33.904-116.455 37.576-193.597h-202.066v180.924c58.468 1.58 115.287 6.691 164.49 12.672zM308.135 675.852c50.471-5.444 108.772-10.109 168.311-11.478v-180.82h-205.405c3.641 76.505 17.943 140.035 37.094 192.297zM77.907 412.446h121.692c2.881-77.56 15.918-143.961 34.279-200.155-45.096-6.268-73.879-11.461-79.96-12.586-42.507 61.265-69.682 134.005-76.012 212.741zM270.766 412.446h205.68v-179.502c-60.483-1.391-119.709-6.178-170.724-11.734-18.393 51.797-31.919 114.911-34.955 191.236zM547.554 412.446h202.34c-3.062-76.973-16.786-140.526-35.418-192.569-49.753 6.108-107.495 11.357-166.922 12.962v179.607zM821.061 412.446h125.032c-6.483-80.634-34.807-154.995-79.092-217.167-2.618 0.562-32.95 6.986-81.018 14.564 18.784 56.708 32.156 123.917 35.079 202.603zM476.446 161.805v-147.901c-9.38 0.754-18.674 1.812-27.875 3.148-11.392 7.686-46.883 34.248-84.916 89.536-9.403 13.669-18.846 29.034-27.934 46.171 43.526 4.324 91.842 7.854 140.726 9.046zM547.554 161.694c47.747-1.376 94.637-5.238 136.837-9.969-8.919-16.721-18.171-31.743-27.385-45.137-39.142-56.902-75.55-83.344-85.805-90.126-7.818-1.058-15.701-1.92-23.647-2.559v147.79zM260.745 144.081c13.895-29.738 29.059-55.605 44.322-77.793 0.664-0.965 1.332-1.893 1.997-2.846-36.704 19.559-70.25 44.217-99.718 73.037 14.765 2.283 32.868 4.903 53.399 7.602zM758.919 141.951c21.139-3.157 39.501-6.206 54.3-8.83-30.055-28.754-64.236-53.228-101.576-72.469 1.318 1.86 2.636 3.724 3.95 5.636 14.898 21.657 29.704 46.819 43.325 75.663z" />
<glyph unicode="&#xe909;" glyph-name="virtualJoystick" d="M510.884 941.175c-272.015-0.616-492.471-221.905-492.060-493.92s221.532-492.638 493.547-492.433c272.016 0.205 492.805 221.162 492.805 493.178h-36.124c0-252.502-204.204-456.863-456.706-457.053s-457.016 203.86-457.398 456.362c-0.381 252.502 203.516 457.17 456.017 457.742s457.324-203.169 458.086-455.67l36.124 0.11c-0.821 272.014-222.277 492.301-494.292 491.685zM618.23 708.216h-212.46l106.23 115.359 53.115-57.679zM618.23 187.784h-212.46l106.23-115.359 53.115 57.679zM772.216 341.77v212.46l115.359-106.23-57.679-53.115zM251.784 341.77v212.46l-115.359-106.23 57.679-53.115z" />
<glyph unicode="&#xe90a;" glyph-name="joystick" d="M512.834 915.507c-87.752-0.199-159.286-72.006-159.154-159.758s71.884-159.341 159.636-159.275c87.096 0.066 158.234 70.719 159.295 157.573 0.044 0.488 0.074 1.076 0.084 1.668v0.022c0 0.086 0.014 0.168 0.014 0.254-0.003 0.098-0.005 0.153-0.007 0.208l0.002-0.050c0.002 0.081 0.004 0.193 0.006 0.306v0.016c-0.001 0.32-0.048 0.629-0.051 0.948-0.015 0.505-0.041 0.969-0.080 1.43l0.006-0.092c-1.507 86.692-72.772 156.946-159.752 156.749zM512.95 864.933c60.433 0.137 109.004-48.18 109.186-108.613 0.004-0.1 0.006-0.139 0.009-0.178l-0.003 0.065c-0.001-0.035-0.003-0.11-0.005-0.185l-0.001-0.030c0-60.433-48.426-108.898-108.859-108.943s-108.931 48.344-109.022 108.777c-0.091 60.433 48.262 108.97 108.695 109.107zM471.19 632.932c-9.859-0.153-17.793-8.181-17.793-18.062 0-0.089 0.001-0.179 0.002-0.268v0.013-356.718l0.48-2.038c0 0 1.438-4.805 3.68-8.168s5.713-7.007 10.454-10.104c9.481-6.192 23.42-10.222 44.617-10.222s35.289 4.066 44.839 10.002c4.775 2.968 8.296 6.402 10.645 9.556s4.056 7.674 4.056 7.674l0.824 2.633v357.384c0.001 0.076 0.002 0.166 0.002 0.255 0 9.976-8.088 18.064-18.064 18.064s-18.064-8.088-18.064-18.064c0-0.090 0.001-0.179 0.002-0.269v0.014-347.314c-3.155-1.522-10.115-3.81-24.24-3.81-13.335 0-20.054 2.068-23.106 3.457v347.667c0.001 0.076 0.002 0.165 0.002 0.254 0 9.976-8.088 18.064-18.064 18.064-0.095 0-0.19-0.001-0.285-0.002h0.014zM345.248 492.501c-25.618 0-49.874-5.236-70.208-14.938s-38.72-24.2-44.487-47.614l-63.034-255.919c-7.417-30.113 5.092-60.75 27.649-79.756s54.082-29.027 90.001-29.027h455.526c35.919 0 67.295 10.007 89.501 29.261s33.718 50.402 25.355 80.289l-71.614 255.916c-6.475 23.14-24.958 37.285-45.46 46.914s-44.869 14.873-70.488 14.873h-112.466v-50.574h112.466c18.411 0 36.416-4.17 48.991-10.075s17.877-13.418 18.254-14.766l5.167-18.471h0.003l66.444-237.445c3.311-11.833 0.643-19.41-9.785-28.451s-30.142-16.897-56.368-16.897h-455.526c-26.226 0-46.388 7.842-57.412 17.131s-13.99 17.377-11.131 28.984l63.034 255.916c0.265 1.075 4.937 8.231 17.159 14.063s30.018 10.010 48.429 10.010h125.050v50.574h-125.050zM833.834 173.816c-0.137 0.003-0.298 0.004-0.459 0.004-13.797 0-25.013-11.048-25.285-24.781v-0.025l-2.165-64.942c-0.554-16.64-5.481-28.772-14.636-37.473s-24.153-15.531-50.594-15.531h-455.526c-26.395 0-42.782 7.055-52.75 16.075s-14.931 20.761-15.062 36.299l-0.525 62.673c0 0.022 0 0.048 0 0.074 0 13.967-11.323 25.29-25.29 25.29s-25.29-11.323-25.29-25.29c0-0.176 0.002-0.351 0.005-0.526v0.026l0.528-62.673c0.231-27.427 10.744-54.409 31.699-73.372s50.935-29.151 86.685-29.151h455.526c35.704 0 65.238 10.249 85.437 29.447s29.451 45.787 30.339 72.446l2.165 64.945c0.018 0.358 0.028 0.777 0.028 1.198 0 13.805-11.062 25.027-24.806 25.285h-0.024zM697.555 204.66c-14.977-0.016-28.558-2.846-38.839-7.747s-18.079-12.357-18.048-22.075c0.031-9.719 7.862-17.143 18.169-22.027s23.907-7.696 38.885-7.691c14.977 0.006 28.565 2.826 38.859 7.719 9.558 4.543 16.703 11.372 17.715 20.091 0.258 0.62 0.393 1.284 0.395 1.956v0.026c0 0.028 0 0.056 0 0.085 0 0.007-0.003 0.013-0.003 0.020-0.006 0.671-0.144 1.335-0.406 1.953-1.072 8.709-8.245 15.505-17.822 20.029-10.32 4.876-23.927 7.678-38.904 7.662z" />
<glyph unicode="&#xe90b;" glyph-name="keyboard" d="M116.336 591.882c-47.658 0-86.608-38.953-86.608-86.611v-340.086c0-47.658 38.95-86.611 86.608-86.611h791.326c47.658 0 86.611 38.953 86.611 86.611v340.086c0 47.658-38.953 86.611-86.611 86.611h-791.326zM116.336 554.409h791.326c27.547 0 49.141-21.591 49.141-49.138v-340.086c0-27.547-21.594-49.141-49.141-49.141h-791.326c-27.547 0-49.138 21.594-49.138 49.141v340.086c0 27.547 21.591 49.138 49.138 49.138zM119.683 498.003h86.158v-82.384h-86.158zM236.096 498.003h86.158v-82.384h-86.158zM352.508 498.003h86.158v-82.384h-86.158zM468.921 498.003h86.158v-82.384h-86.158zM585.334 498.003h86.158v-82.384h-86.158zM701.746 498.003h86.158v-82.384h-86.158zM818.159 498.003h86.158v-82.384h-86.158zM119.683 377.675h132.676v-82.384h-132.676zM288.125 377.675h86.158v-82.384h-86.158zM410.049 377.675h86.158v-82.384h-86.158zM531.973 377.675h86.158v-82.384h-86.158zM653.897 377.675h86.158v-82.384h-86.158zM775.82 377.675h128.497v-82.384h-128.497zM119.683 254.836h86.158v-82.384h-86.158zM240.653 254.836h86.158v-82.384h-86.158zM361.622 254.836h300.755v-82.384h-300.755zM697.189 254.836h86.158v-82.384h-86.158zM818.159 254.836h86.158v-82.384h-86.158zM612.872 817.426l-27.071-1.103c0 0 0.852-21.465-1.722-46.084s-10.366-51.764-19.253-60.235c-4.275-4.075-10.547-6.079-20.060-6.454s-21.393 1.163-33.68 2.664c-12.287 1.501-24.973 3.052-37.561 1.366s-26.121-7.994-33.596-20.935c-6.929-11.998-6.069-25.471-3.020-37.775s8.611-24.293 14.574-35.162c11.927-21.738 25.936-39.187 25.936-39.187l21.158 16.919c0 0-12.787 16.061-23.343 35.3-5.278 9.62-9.881 19.986-12.028 28.648s-1.513 14.767 0.183 17.704c2.878 4.982 6.088 6.61 13.73 7.634s18.673 0.059 30.68-1.408c12.008-1.467 24.999-3.353 38.032-2.839s26.98 3.707 37.688 13.914c19.912 18.979 24.698 50.173 27.505 77.030s1.846 50.004 1.846 50.004z" />
<glyph unicode="&#xe90c;" glyph-name="reset" d="M927.624 858.964l35.696-317.771-317.487 35.98 96.53 96.53c-124.682 124.649-326.8 124.635-451.465-0.030-124.677-124.677-124.677-326.819 0-451.496s326.819-124.677 451.496 0c47.576 47.576 78.904 108.966 89.513 175.407l125.846-25.111c-15.615-91.295-59.173-175.496-124.665-240.99-83.926-83.926-197.754-131.075-316.443-131.075s-232.517 47.149-316.443 131.075c-174.766 174.767-174.766 458.119 0 632.885 174.755 174.754 458.083 174.768 632.855 0.030z" />
<glyph unicode="&#xe90d;" glyph-name="sensors" d="M181.5 883.074c-77.41 0-140.47-63.058-140.47-140.468v-589.212c0-77.41 63.060-140.47 140.47-140.47h285.482c77.41 0 140.47 63.060 140.47 140.47v589.212c0 77.41-63.060 140.468-140.47 140.468h-285.482zM181.5 835.661h285.482c51.963 0 93.057-41.091 93.057-93.054v-589.212c0-51.963-41.094-93.057-93.057-93.057h-285.482c-51.963 0-93.057 41.094-93.057 93.057v589.212c0 51.963 41.094 93.054 93.057 93.054zM581.268 755.476v-47.413h320.032c28.285 0 34.329-13.995 34.256-28.454s-6.64-28.694-34.256-28.694h-192.083c-24.273 0-45.458-11.317-58.126-27.491s-17.924-35.981-17.712-55.366c0.212-19.386 5.879-38.958 18.505-54.929s33.456-27.409 57.333-27.409h63.85c17.184 0 24.893-4.728 30.285-10.953s8.695-16.058 8.695-28.027v-107.899h47.413v107.899c0 20.577-5.562 42.087-20.272 59.069s-38.343 27.325-66.122 27.325h-63.85c-10.235 0-15.307 3.285-20.139 9.398s-8.179 15.986-8.289 26.046c-0.11 10.060 2.999 19.701 7.628 25.612s9.672 9.313 20.8 9.313h192.083c49.145 0 81.48 38.049 81.669 75.87s-32.146 76.104-81.669 76.104h-320.032zM835.017 343.307c-63.92 0-102.608-29.844-120.221-60.012s-17.094-60.435-17.094-60.435l0.223-23.481h274.165l0.226 23.478c0 0 0.526 30.266-17.083 60.435s-56.296 60.015-120.215 60.015zM835.017 295.894c50.6 0 68.71-18.414 79.268-36.503 2.504-4.29 4.382-8.558 5.845-12.598h-170.234c1.463 4.040 3.34 8.306 5.845 12.596 10.562 18.090 28.676 36.505 79.276 36.505zM823.327 245.421c-31.527 0-57.65-26.123-57.65-57.65v-98.439c0-31.527 26.123-57.65 57.65-57.65h22.552c31.527 0 57.65 26.123 57.65 57.65v98.439c0 31.527-26.123 57.65-57.65 57.65h-22.552zM823.327 198.008h22.552c6.080 0 10.236-4.156 10.236-10.236v-98.439c0-6.080-4.156-10.236-10.236-10.236h-22.552c-6.080 0-10.236 4.156-10.236 10.236v98.439c0 6.080 4.156 10.236 10.236 10.236zM175.596 747.802c-13.093 0-23.707-10.614-23.707-23.707v0c0-13.093 10.614-23.707 23.707-23.707v0h176.056c13.093 0 23.707 10.614 23.707 23.707v0c0 13.093-10.614 23.707-23.707 23.707v0h-176.056zM175.596 639.429c-13.093 0-23.707-10.614-23.707-23.707v0c0-13.093 10.614-23.707 23.707-23.707v0h310.247c13.093 0 23.707 10.614 23.707 23.707v0c0 13.093-10.614 23.707-23.707 23.707v0h-310.247zM175.596 531.056c-13.093 0-23.707-10.614-23.707-23.707v0c0-13.093 10.614-23.707 23.707-23.707v0h260.895c13.093 0 23.707 10.614 23.707 23.707v0c0 13.093-10.614 23.707-23.707 23.707v0h-260.895zM175.596 422.682c-13.093 0-23.707-10.614-23.707-23.707v0c0-13.093 10.614-23.707 23.707-23.707v0h239.666c13.093 0 23.707 10.614 23.707 23.707v0c0 13.093-10.614 23.707-23.707 23.707v0h-239.666zM175.596 314.309c-13.093 0-23.707-10.614-23.707-23.707v0c0-13.093 10.614-23.707 23.707-23.707v0h291.126c13.093 0 23.707 10.614 23.707 23.707v0c0 13.093-10.614 23.707-23.707 23.707v0h-291.126zM175.596 205.936c-13.093 0-23.707-10.614-23.707-23.707v0c0-13.093 10.614-23.707 23.707-23.707v0h183.481c13.093 0 23.707 10.614 23.707 23.707v0c0 13.093-10.614 23.707-23.707 23.707v0h-183.481z" />
<glyph unicode="&#xe90e;" glyph-name="buttonsDown" d="M292.337 925.478l-264.183-261.987-0.787-692.968h969.267v668.141l-271.337 286.814zM346.611 793.675h321.937l196.28-207.478v-483.87h-705.505l0.573 506.185z" />
<glyph unicode="&#xe90f;" glyph-name="buttonsLeft" d="M32.492 934.213v-972.425h670.309l288.708 273.123v432.539l-263.771 265.983zM163.099 803.459l510.162-0.573 187.638-189.216v-322.526l-210.089-198.749h-487.711z" />
<glyph unicode="&#xe910;" glyph-name="buttonsRight" d="M318.414 939.939l-291.022-275.319v-439.756l265.786-268.015 703.43-0.79v983.88zM370.964 807.927h493.629v-719.706l-516.348 0.581-188.841 190.424v328.557z" />
<glyph unicode="&#xe911;" glyph-name="buttonsUp" d="M25.634 927.163v-670.529l272.263-287.796h434.602l265.089 262.882 0.779 695.444zM157.909 794.888h708.033l-0.57-507.994-187.339-185.781h-323.184l-196.94 208.176z" />
<glyph unicode="&#xe912;" glyph-name="buttons" d="M34.832 599.523v-302.579h208.574l89.834 84.986v134.589l-82.073 82.762zM75.472 558.837l158.742-0.178 58.386-58.877v-100.355l-65.371-61.843h-151.757zM780.387 599.669l-89.591-84.757v-135.376l81.822-82.508 216.549-0.243v302.884zM796.564 559.029h151.963v-221.559l-158.956 0.178-58.135 58.623v101.146zM444.24 265.154l-81.455-80.778-0.246-213.668h298.859v206.011l-83.662 88.434zM460.976 224.514h99.263l60.52-63.971v-149.194h-217.531l0.178 156.075zM362.548 925.292v-206.011l83.648-88.423h133.525l81.444 80.766 0.24 213.668zM403.188 884.652h217.531l-0.175-156.075-57.559-57.079h-99.291l-60.506 63.96zM410.419 597.953l-48.915-48.915v-203.474l48.915-48.915h203.474l48.915 48.915v203.474l-48.915 48.915zM426.463 559.218h171.385l26.224-26.224v-171.385l-26.224-26.224h-171.385l-26.224 26.224v171.385zM38.611 921.547v-227.559h204.933l70.578 93.418v134.14zM79.251 880.907h194.231v-79.875l-50.171-66.404h-144.060z" />
<glyph unicode="&#xe913;" glyph-name="buttonsBackspace" d="M36.644 840.617v-785.235h707.164l243.549 322.363v462.873zM176.88 700.38h670.241v-275.615l-173.124-229.145h-497.118z" />
<glyph unicode="&#xe914;" glyph-name="buttonsEnter" d="M183.025 935.139l-158.168-158.168v-657.942l158.168-158.168h657.951l158.168 158.168v657.942l-158.168 158.168zM234.905 809.888h554.182l84.806-84.797v-554.182l-84.806-84.797h-554.182l-84.797 84.797v554.182z" />
<glyph unicode="&#xe915;" glyph-name="download" d="M540.709 90.433l-258.249 281.101h164.779v294.796h184.534v-294.796h167.186zM545.064 839.112c-139.89-0.268-253.188-118.901-280.814-273.609-3.564 0.238-7.125 0.562-10.696 0.573h-0.11c-111.738 0-195.639-106.138-195.639-228.45s83.902-228.453 195.639-228.453h0.562l0.564 0.020c-3.312-0.101 7.762 0.028 18.604 0.031s24.925-0.003 39.023 0.012c14.098 0.014 28.202 0.044 39.192 0.116 5.495 0.036 10.195 0.082 13.851 0.144 1.828 0.031 3.38 0.065 4.795 0.113s0.902-0.265 6.028 0.466c18.032 2.643 31.721 18.005 31.721 36.564 0 1.838-0.134 3.645-0.394 5.411l0.024-0.2c-2.642 18.034-18.004 31.724-36.564 31.724-1.838 0-3.645-0.134-5.411-0.393l0.2 0.024c4.521 0.644 2.596 0.252 1.899 0.229s-1.961-0.052-3.55-0.079c-3.179-0.054-7.723-0.101-13.081-0.135-10.716-0.070-24.747-0.099-38.786-0.113s-28.097-0.012-38.969-0.014c-10.872-0.003-15.088 0.111-20.839-0.065l1.129 0.017c-63.563 0-121.773 65.353-121.773 154.584 0 89.208 58.179 154.544 121.722 154.579 3.157-0.012 6.312-0.177 9.463-0.505l1.905-0.198h65.21l3.167 33.452c13.345 140.951 107.662 240.067 212.036 240.287 79.92-0.038 156.011-57.499 192.809-155.166l7.005-18.59 19.372-4.403c73.782-16.774 133.484-99.061 133.514-200.070-0.247-110.571-70.792-197.298-152.027-203.779-13.11-0.239-13.893-0.066-26.487-0.226-20.196-0.264-36.466-16.697-36.466-36.931 0-0.164 0.001-0.328 0.003-0.491v0.025c0.264-20.196 16.697-36.466 36.931-36.466 0.164 0 0.328 0.001 0.491 0.003h-0.025c12.397 0.157 12.364-0.072 28.423 0.246l1.013 0.020 1.008 0.076c128.103 9.571 220.709 134.85 221.005 277.408v0.082c-0.015 122.679-68.19 232.81-171.921 266.759-48.399 111.005-145.211 185.353-254.677 185.375h-0.040z" />
<glyph unicode="&#xe916;" glyph-name="upload" d="M543.536 669.148l-258.249-281.101h164.779v-294.796h184.534v294.796h167.186zM547.892 828.383c-139.89-0.268-253.188-118.901-280.814-273.609-3.564 0.238-7.125 0.562-10.696 0.573h-0.113c-111.738 0-195.639-106.138-195.639-228.45s83.902-228.453 195.639-228.453h0.564l0.564 0.017c-3.312-0.101 7.762 0.031 18.604 0.034s24.922-0.003 39.020 0.012c14.098 0.014 28.202 0.044 39.192 0.116 5.495 0.036 10.197 0.082 13.854 0.144 1.828 0.031 3.38 0.065 4.795 0.113s0.899-0.265 6.025 0.466c18.034 2.642 31.724 18.004 31.724 36.564 0 1.838-0.134 3.645-0.393 5.41l0.024-0.201c-2.642 18.034-18.004 31.724-36.564 31.724-1.838 0-3.645-0.134-5.411-0.393l0.2 0.024c4.52 0.644 2.596 0.252 1.899 0.229s-1.961-0.052-3.55-0.079c-3.179-0.054-7.723-0.101-13.081-0.135-10.716-0.070-24.747-0.099-38.786-0.113s-28.097-0.012-38.969-0.014c-10.872-0.003-15.088 0.111-20.839-0.065l1.126 0.017c-63.563 0-121.77 65.353-121.77 154.584 0 89.208 58.176 154.544 121.72 154.579 3.157-0.012 6.314-0.177 9.466-0.505l1.905-0.198h65.21l3.167 33.452c13.345 140.95 107.66 240.065 212.034 240.287 79.92-0.038 156.014-57.499 192.811-155.166l7.005-18.59 19.369-4.403c73.782-16.774 133.487-99.061 133.517-200.070-0.247-110.571-70.792-197.298-152.027-203.779-13.11-0.239-13.896-0.066-26.489-0.226-20.196-0.264-36.466-16.697-36.466-36.931 0-0.164 0.001-0.328 0.003-0.491v0.025c0.264-20.196 16.697-36.466 36.931-36.466 0.165 0 0.33 0.001 0.494 0.003h-0.025c12.397 0.157 12.362-0.072 28.42 0.246l1.013 0.020 1.010 0.076c128.103 9.571 220.709 134.85 221.005 277.408v0.082c-0.015 122.679-68.19 232.81-171.921 266.759-48.399 111.005-145.211 185.353-254.677 185.375h-0.039z" />
<glyph unicode="&#xe917;" glyph-name="deleteFile" d="M271.427 665.815v-682.483h481.147v682.483zM369.764 572.088c19.638 0 35.558-14.524 35.558-32.439v0-467.051c0-17.916-15.92-32.439-35.558-32.439v0c-19.638 0-35.558 14.524-35.558 32.439v0 467.051c0 17.916 15.92 32.439 35.558 32.439v0zM511.997 572.088c19.638 0 35.558-14.524 35.558-32.439v0-467.051c0-17.916-15.92-32.439-35.558-32.439v0c-19.638 0-35.558 14.524-35.558 32.439v0 467.051c0 17.916 15.92 32.439 35.558 32.439v0zM654.23 572.088c19.638 0 35.558-14.524 35.558-32.439v0-467.051c0-17.916-15.92-32.439-35.558-32.439v0c-19.638 0-35.558 14.524-35.558 32.439v0 467.051c0 17.916 15.92 32.439 35.558 32.439v0zM408.495 915.483v-101.821h-212.589v-194.174h43.746v89.005h544.694v-89.005h43.748v194.174h-212.589v101.821zM452.798 863.167h118.403v-49.713h-118.403z" />
<glyph unicode="&#xe918;" glyph-name="kebab" d="M657.933 792.443c0-80.597-65.337-145.933-145.933-145.933v0c-80.597 0-145.933 65.337-145.933 145.933v0c0 80.597 65.337 145.933 145.933 145.933v0c80.597 0 145.933-65.337 145.933-145.933v0zM657.933 448c0-80.597-65.337-145.933-145.933-145.933v0c-80.597 0-145.933 65.337-145.933 145.933v0c0 80.597 65.337 145.933 145.933 145.933v0c80.597 0 145.933-65.337 145.933-145.933v0zM657.933 103.557c0-80.597-65.337-145.934-145.933-145.934v0c-80.597 0-145.933 65.337-145.933 145.933v0c0 80.597 65.337 145.933 145.933 145.933v0c80.597 0 145.933-65.337 145.933-145.933v0z" />
<glyph unicode="&#xe919;" glyph-name="newFile" d="M185.888 895.849v-867.622h304.186v65.855h-238.329v735.912h328.176v-188.018h188.092v-319.13h65.855v378.857l-206.706 194.146h-441.275zM647.655 786.256l81.497-76.547h-81.497v76.547zM663.408 331.35v-138.023h-138.020v-67.733h138.020v-138.023h67.733v138.023h138.020v67.733h-138.020v138.023h-67.733z" />
<glyph unicode="&#xe91a;" glyph-name="plus" d="M432.67 926.632v-399.303h-399.303v-158.66h399.303v-399.303h158.66v399.303h399.303v158.66h-399.303v399.303z" />
<glyph unicode="&#xe91b;" glyph-name="edit" d="M658.41 792.109l-578.231-578.231-12.252-209.951 209.953 12.249 578.231 578.231zM118.64 196.405l141.765-141.765-150.551-8.783zM814.803 877.274c-19.731 19.731-51.498 19.731-71.229 0-19.737-19.737-39.473-39.473-59.21-59.21l197.701-197.701c19.737 19.737 39.473 39.473 59.21 59.21 19.731 19.731 19.731 51.498 0 71.229z" />
</font>
</defs>
</svg>
